RO-KYU-BU! – SHOOT!(《萝球社》OP)

嗯,希望下载的朋友能帮忙回复下下载速度/你的带宽/你的ISP/你的地理位置,麻烦了!(鞠躬w

这个是测试压的480P H264+AAC,但估计是最后一个了。以后如果不出意外的话,DVDRIP全都是540P,为了贴合四分之一FullHD。

RO-KYU-BU! - SHOOT!.mp4
   General
      Complete name : RO-KYU-BU! - SHOOT!.mp4
      Format : MPEG-4
      Format profile : Base Media
      Codec ID : isom
      File size : 140 MiB
      Duration : 5mn 55s
      Overall bit rate : 3 308 Kbps
      Encoded date : UTC 2011-08-20 19:34:55
      Tagged date : UTC 2011-08-20 19:34:55
   Video #1
      ID : 1
      Format : AVC
      Format/Info : Advanced Video Codec
      Format profile : High@L5.1
      Format settings, CABAC : Yes
      Format settings, ReFrames : 2 frames
      Codec ID : avc1
      Codec ID/Info : Advanced Video Coding
      Duration : 5mn 55s
      Bit rate mode : Variable
      Bit rate : 3 000 Kbps
      Maximum bit rate : 9 437 Kbps
      Width : 720 pixels
      Height : 480 pixels
      Display aspect ratio : 16:9
      Original display aspect ratio : 16:9
      Frame rate mode : Constant
      Frame rate : 29.970 fps
      Standard : NTSC
      Color space : YUV
      Chroma subsampling : 4:2:0
      Bit depth : 8 bits
      Scan type : Progressive
      Bits/(Pixel*Frame) : 0.290
      Stream size : 127 MiB (91%)
      Writing library : x264 core 116 r2057 0ba8a9c
      Encoding settings : cabac=1 / ref=2 / deblock=1:-1:-1 / analyse=0x3:0x133 / me=umh / subme=10 / psy=1 / psy_rd=1.00:0.00 / mixed_ref=1 / me_range=24 / chroma_me=1 / trellis=2 / 8x8dct=1 / cqm=0 / deadzone=21,11 / fast_pskip=1 / chroma_qp_offset=-2 / threads=12 / sliced_threads=0 / nr=0 / decimate=1 / interlaced=0 / bluray_compat=0 / constrained_intra=0 / bframes=1 / b_pyramid=0 / b_adapt=2 / b_bias=0 / direct=3 / weightb=1 / open_gop=0 / weightp=2 / keyint=250 / keyint_min=25 / scenecut=40 / intra_refresh=0 / rc_lookahead=60 / rc=2pass / mbtree=1 / bitrate=3000 / ratetol=1.0 / qcomp=0.60 / qpmin=0 / qpmax=69 / qpstep=4 / cplxblur=20.0 / qblur=0.5 / ip_ratio=1.40 / aq=1:1.00
      Encoded date : UTC 2011-08-20 19:34:55
      Tagged date : UTC 2011-08-20 19:34:56
   Audio #2
      ID : 2
      Format : AAC
      Format/Info : Advanced Audio Codec
      Format version : Version 4
      Format profile : LC
      Format settings, SBR : No
      Codec ID : 40
      Duration : 5mn 55s
      Bit rate mode : Variable
      Bit rate : 299 Kbps
      Maximum bit rate : 367 Kbps
      Channel(s) : 2 channels
      Channel positions : Front: L R
      Sampling rate : 48.0 KHz
      Stream size : 12.7 MiB (9%)
      Encoded date : UTC 2011-08-20 19:34:56
      Tagged date : UTC 2011-08-20 19:34:56
下载:RO-KYU-BU! - SHOOT!

					
Advertisements

2 thoughts on “RO-KYU-BU! – SHOOT!(《萝球社》OP)

  1. Pingback引用通告: 晒的就是你:ACER AS4750G-2632G75Mnkk不负责评测 – 看海的狐狸的后花园

  2. Pingback引用通告: 晒的就是你:ACER AS4750G-2632G75Mnkk不负责评测 | 看海的狐狸的后花园

发表评论

Fill in your details below or click an icon to log in:

WordPress.com Logo

You are commenting using your WordPress.com account. Log Out / 更改 )

Twitter picture

You are commenting using your Twitter account. Log Out / 更改 )

Facebook photo

You are commenting using your Facebook account. Log Out / 更改 )

Google+ photo

You are commenting using your Google+ account. Log Out / 更改 )

Connecting to %s