妖精帝國 – 空想メソロギヰ;飛蘭 – Blood teller(《未来日记》OP/ED)

于是这次是双弹连发,未来日记的OP/ED PV
这次主要测试迅雷快盘,如果稳定的话考虑长期使用
众所周知某些不可告人的原因,我传国外FTP速度也很坑爹的……不过我传迅雷快盘还算能到满速
那么请下载的朋友分享下自己的下载速度吧(鞠躬

妖精帝國 – 空想メソロギヰ.mkv
http://kuai.xunlei.com/d/TJWEFFXGGTWQ

飛蘭 – Blood teller.mkv
http://kuai.xunlei.com/d/TJWEFFXGGTWQ

妖精帝國 – 空想メソロギヰ.mkv
General
Unique ID : 234628064839923465352625791239509436047 (0xB083B8B9EB036323929E755873A2E68F)
Complete name : 妖精帝國 – 空想メソロギヰ.mkv
Format : Matroska
Format version : Version 2
File size : 97.3 MiB
Duration : 4mn 31s
Overall bit rate : 3 010 Kbps
Encoded date : UTC 2011-12-09 16:16:52
Writing application : mkvmerge v5.1.0 (‘And so it goes’) built on Nov 28 2011 23:58:28
Writing library : libebml v1.2.3 + libmatroska v1.3.0
Video #1
ID : 1
Format : AVC
Format/Info : Advanced Video Codec
Format profile : High@L5.1
Format settings, CABAC : Yes
Format settings, ReFrames : 3 frames
Muxing mode : Header stripping
Codec ID : V_MPEG4/ISO/AVC
Duration : 4mn 31s
Bit rate : 2 560 Kbps
Width : 720 pixels
Height : 480 pixels
Display aspect ratio : 16:9
Original display aspect ratio : 3:2
Frame rate : 29.970 fps
Standard : NTSC
Color space : YUV
Chroma subsampling : 4:2:0
Bit depth : 8 bits
Scan type : Progressive
Bits/(Pixel*Frame) : 0.247
Stream size : 80.9 MiB (83%)
Writing library : x264 core 116 r2057 0ba8a9c
Encoding settings : cabac=1 / ref=2 / deblock=1:-1:-1 / analyse=0x3:0x133 / me=umh / subme=10 / psy=1 / psy_rd=1.00:0.00 / mixed_ref=1 / me_range=24 / chroma_me=1 / trellis=2 / 8x8dct=1 / cqm=0 / deadzone=21,11 / fast_pskip=1 / chroma_qp_offset=-2 / threads=12 / sliced_threads=0 / nr=0 / decimate=1 / interlaced=0 / bluray_compat=0 / constrained_intra=0 / bframes=2 / b_pyramid=1 / b_adapt=2 / b_bias=0 / direct=3 / weightb=1 / open_gop=0 / weightp=2 / keyint=250 / keyint_min=25 / scenecut=40 / intra_refresh=0 / rc_lookahead=60 / rc=2pass / mbtree=1 / bitrate=2560 / ratetol=1.0 / qcomp=0.60 / qpmin=0 / qpmax=69 / qpstep=4 / cplxblur=20.0 / qblur=0.5 / ip_ratio=1.40 / aq=1:1.00
Audio #2
ID : 2
Format : AC-3
Format/Info : Audio Coding 3
Mode extension : CM (complete main)
Muxing mode : Header stripping
Codec ID : A_AC3
Duration : 4mn 31s
Bit rate mode : Constant
Bit rate : 448 Kbps
Channel(s) : 2 channels
Channel positions : Front: L R
Sampling rate : 48.0 KHz
Bit depth : 16 bits
Compression mode : Lossy
Stream size : 14.5 MiB (15%)

飛蘭 – Blood teller.mkv
General
Unique ID : 226895742451958238534834758747029853787 (0xAAB287CC80CCD23C87B066F53735565B)
Complete name : 飛蘭 – Blood teller.mkv
Format : Matroska
Format version : Version 2
File size : 106 MiB
Duration : 4mn 55s
Overall bit rate : 3 008 Kbps
Encoded date : UTC 2011-12-09 16:23:29
Writing application : mkvmerge v5.1.0 (‘And so it goes’) built on Nov 28 2011 23:58:28
Writing library : libebml v1.2.3 + libmatroska v1.3.0
Video #1
ID : 1
Format : AVC
Format/Info : Advanced Video Codec
Format profile : High@L5.1
Format settings, CABAC : Yes
Format settings, ReFrames : 3 frames
Muxing mode : Header stripping
Codec ID : V_MPEG4/ISO/AVC
Duration : 4mn 55s
Bit rate : 2 560 Kbps
Width : 720 pixels
Height : 480 pixels
Display aspect ratio : 16:9
Original display aspect ratio : 3:2
Frame rate : 29.970 fps
Standard : NTSC
Color space : YUV
Chroma subsampling : 4:2:0
Bit depth : 8 bits
Scan type : Progressive
Bits/(Pixel*Frame) : 0.247
Stream size : 88.0 MiB (83%)
Writing library : x264 core 116 r2057 0ba8a9c
Encoding settings : cabac=1 / ref=2 / deblock=1:-1:-1 / analyse=0x3:0x133 / me=umh / subme=10 / psy=1 / psy_rd=1.00:0.00 / mixed_ref=1 / me_range=24 / chroma_me=1 / trellis=2 / 8x8dct=1 / cqm=0 / deadzone=21,11 / fast_pskip=1 / chroma_qp_offset=-2 / threads=12 / sliced_threads=0 / nr=0 / decimate=1 / interlaced=0 / bluray_compat=0 / constrained_intra=0 / bframes=2 / b_pyramid=1 / b_adapt=2 / b_bias=0 / direct=3 / weightb=1 / open_gop=0 / weightp=2 / keyint=250 / keyint_min=25 / scenecut=40 / intra_refresh=0 / rc_lookahead=60 / rc=2pass / mbtree=1 / bitrate=2560 / ratetol=1.0 / qcomp=0.60 / qpmin=0 / qpmax=69 / qpstep=4 / cplxblur=20.0 / qblur=0.5 / ip_ratio=1.40 / aq=1:1.00
Audio #2
ID : 2
Format : AC-3
Format/Info : Audio Coding 3
Mode extension : CM (complete main)
Muxing mode : Header stripping
Codec ID : A_AC3
Duration : 4mn 55s
Bit rate mode : Constant
Bit rate : 448 Kbps
Channel(s) : 2 channels
Channel positions : Front: L R
Sampling rate : 48.0 KHz
Bit depth : 16 bits
Compression mode : Lossy
Stream size : 15.8 MiB (15%)

Advertisements

发表评论

Fill in your details below or click an icon to log in:

WordPress.com Logo

You are commenting using your WordPress.com account. Log Out / 更改 )

Twitter picture

You are commenting using your Twitter account. Log Out / 更改 )

Facebook photo

You are commenting using your Facebook account. Log Out / 更改 )

Google+ photo

You are commenting using your Google+ account. Log Out / 更改 )

Connecting to %s